#TITLE:Guitar vs Piano 2.0;
#SUBTITLE:~Paradox & Keidancer~;
#ARTIST:dj Recoil;
#TITLETRANSLIT:;
#SUBTITLETRANSLIT:;
#ARTISTTRANSLIT:;
#CREDIT:;
#BANNER:Guitar vs Pinao 2.o-Banner.PNG;
#BACKGROUND:Guitar vs Pinao 2.o-BG.PNG;
#LYRICSPATH:;
#CDTITLE:cd.png;
#MUSIC:Guitar vs Piano 2.0.mp3;
#OFFSET:-0.080;
#SAMPLESTART:41.390;
#SAMPLELENGTH:9.000;
#SELECTABLE:YES;
#BPMS:0.000=160.010;
#STOPS:;
#BGCHANGES:;
// cache tags:
#FIRSTBEAT:0.000;
#LASTBEAT:546.000;
#SONGFILENAME:Songs/Chilean Keyboard Megapack 3/(Paradox & Keidancer) Guitar vs Piano v2/Guitar vs Piano 2.0.sm;
#HASMUSIC:1;
#HASBANNER:1;
#MUSICLENGTH:207.438;
// end cache tags

//---------------dance-single - Blank----------------
#NOTES:
     dance-single:
     Blank:
     Challenge:
     12:
     1.000,1.000,1.000,0.014,1.000,1540.000,254.000,3.000,0.000,0.000:
1000
1100
0010
0001
0100
0010
1000
0100
,
0010
0000
0011
0000
1000
0000
0010
0000
0100
0001
0100
0010
1000
0100
0010
0001
,
0010
1100
1000
0001
0100
0110
1000
0100
,
0010
0000
1001
0000
0010
0000
0100
0000
1000
0100
0010
0001
0100
0010
1000
0100
,
0010
0001
0101
1000
0010
0100
0001
1000
,
0100
0000
0110
0000
0001
0000
1000
0000
0010
0100
0001
0010
0100
0010
0001
0100
,
0010
1000
1100
0010
0001
0100
0010
1000
,
0101
0000
0010
0000
0100
0000
1000
0000
0001
0100
0010
1000
0001
0100
0010
1000
,
0101
0010
1100
0001
0110
1000
0101
0010
,
1100
0000
0001
0000
0101
0000
1010
0000
0100
0010
1000
0100
0010
0001
1000
0010
,
0001
0010
1100
0001
0110
1000
0101
1000
,
0011
0000
0100
0000
1010
0000
0101
0000
0110
1000
0001
0100
0010
1000
0100
0010
,
0101
0010
1100
0010
0101
0010
1100
0001
,
0110
0000
1000
0000
0101
0000
1010
0000
1000
0001
1000
0100
0010
0001
0100
0010
,
1100
0001
0110
1000
0101
0010
1010
0001
,
1010
0000
0101
0000
1000
0000
0001
0000
1000
0001
1000
0001
1000
0001
1000
1001
,
0000
0010
1000
0001
0100
1000
0001
0100
,
1000
0000
0001
0000
0010
0000
1000
0000
0001
0010
0100
0001
1000
0010
0100
0001
,
1000
1000
0010
0001
0010
1000
0010
0100
,
0100
0000
0001
0000
0010
0000
0001
0000
1000
0010
0100
0001
1000
0010
0100
0001
,
0011
1000
0001
1000
0010
0001
0100
1000
,
0100
0000
0010
0000
0001
0000
1000
0000
0001
0010
1000
0001
0100
0010
1000
0001
,
0110
1000
0001
0010
1000
1000
0001
0100
,
1000
0000
0000
0000
0000
0000
0100
0000
0000
0000
0000
0000
0010
0000
0000
0000
0000
0000
0001
0000
0000
0000
0000
0000
1000
0000
0000
0010
0000
0000
0100
0000
0000
0010
0000
0000
1000
0000
0000
0100
0000
0000
0010
0000
0001
0000
1000
0000
,
0100
0001
1000
0001
0100
0010
0100
0010
1000
0001
1000
0100
0010
0001
0010
0100
,
1000
0010
1000
0010
0100
0001
1000
0001
0100
0001
1000
0010
1000
0001
0100
0001
,
0010
0100
1000
0100
0010
0001
1000
0001
0010
0100
1000
0100
0010
0100
0010
1000
,
0001
1000
0001
0010
0100
1000
0100
0010
0001
0010
0100
0010
0100
0001
0100
0001
,
1000
0100
0010
0001
0010
0100
1000
0100
0010
0001
0010
0100
1000
0100
1000
0001
,
1000
0001
0010
0001
0100
0001
1000
0010
0100
0010
0100
0001
0010
0100
1000
0100
,
0010
0001
1000
0001
0010
0100
1000
0001
1000
0001
0010
0100
1000
0100
0010
0001
,
0010
0100
0010
0100
0001
1000
0001
0010
0100
1000
0100
0010
0001
1000
0010
1000
,
0001
1000
0110
0000
1000
0100
0000
0100
0010
0000
0011
0000
1000
0001
0100
0010
,
1000
0001
0100
0000
0010
1010
0000
0001
0101
0000
0010
0000
1100
0010
0001
0100
,
0001
0000
1000
0000
0010
1000
0000
0001
0100
0000
0010
0000
1000
0001
0000
0100
,
0010
0000
1000
0000
0001
0100
0000
0010
1000
0000
0100
0010
0001
0010
0100
1000
,
0010
0000
0100
0000
0001
0010
0000
0100
1000
0000
0001
0000
0100
0010
0000
1000
,
0100
1000
0100
0000
0010
0000
0001
0100
0001
0010
0100
1000
0010
0000
1000
0100
,
1000
0000
0010
0000
0100
0000
0001
0010
0001
0000
0100
0000
0010
0000
1000
0001
,
0100
0010
1000
0001
0100
0010
1000
0001
0100
0010
0100
0000
1001
1001
1001
0000
,
1000
0001
1000
0001
0110
0100
1000
0100
0010
0001
0010
0100
1001
0100
1000
0001
,
0100
0001
1000
0001
0110
0001
1000
0010
1000
0001
0100
0001
1010
0100
1000
0100
,
0010
0001
1000
0001
0110
0001
1000
0010
0100
0010
1000
0001
1010
0100
1000
0001
,
1000
0001
0010
0100
1001
0100
0010
0001
1000
0100
1000
0010
1001
0100
0010
0001
,
0010
0100
1000
0001
0110
0001
1000
0010
0100
0001
0010
0100
1001
0100
0010
0001
,
1000
0010
1000
0010
1001
0100
0010
0001
0010
0100
1000
0100
1010
0001
1000
0100
,
1000
0010
0100
0010
1100
0001
0100
0001
1000
0010
0100
0010
1001
0100
0010
0001
,
0010
0100
1000
0001
1100
0010
0100
0001
0010
0100
1000
0100
0110
0001
1000
0001
,
1000
0100
1000
0010
0101
0010
0100
0001
0100
0001
1000
0001
0110
0001
1000
0010
,
1000
0010
0100
0001
1010
0001
0010
0100
1000
0100
0010
0001
1100
0001
0100
0001
,
0100
0010
1000
0010
1001
0100
0010
0100
0010
1000
0001
1000
0101
0010
0100
1000
,
0100
0000
0000
0010
0000
0000
0001
0000
0000
1000
0000
0000
0110
0000
0000
1000
0000
0000
0001
0000
0000
0100
0000
0000
0001
0000
1000
0000
0001
0000
1000
0000
0001
0000
1000
0000
0001
0000
1000
0000
0001
0000
1000
0000
0001
0000
1000
0000
,
0001
1000
0200
0010
0000
0000
0000
0000
0000
0010
0000
0000
0000
0000
0000
0310
0000
0000
0000
0000
0000
0010
0000
0000
,
0000
1000
0100
0010
0001
0010
0100
1000
,
0101
0110
1010
0110
0101
0011
0110
1100
,
0110
0000
0101
0000
0110
0000
1100
0000
0110
0001
0100
0010
1000
0100
0010
0001
,
0110
1000
0001
0000
0000
0000
0000
0000
0100
0010
0100
0000
0000
0000
0000
0000
,
0000
1000
0100
0010
0001
0100
0010
1000
,
0110
0011
0110
1100
1001
0101
0110
1010
,
0010
0100
0010
0100
0010
0000
0000
0000
1001
0000
0000
0110
0110
0000
0000
0000
,
0110
1000
0100
0010
0001
1000
0001
0001
,
0000
0000
1000
0000
0001
0000
0100
0000
0001
1000
0001
1000
0001
1000
0001
0000
,
1010
0101
1010
0110
1001
0110
1100
0011
,
0110
0000
1100
0000
0011
0000
0101
0000
1000
0100
1000
0100
1000
0100
1000
0100
,
0001
1000
0010
0100
0001
1000
0001
0001
,
0000
0000
1000
0000
0100
0000
1000
0000
0001
0010
0001
0010
0001
0010
0001
0010
,
0001
1100
0110
1100
0011
0110
1001
1100
,
0101
0000
0110
0000
1010
0000
0011
0000
0100
0010
0100
0010
0100
0010
0100
0010
,
0001
1000
0010
1000
0001
1000
0001
0001
,
0000
0000
1000
0000
0010
0000
1000
0000
0001
1000
0001
1000
0001
1000
0001
1000
,
0110
0101
1010
0101
0110
1100
0110
1010
,
0101
0000
1010
0000
0011
0000
0110
0000
0100
0001
1000
0100
0010
0001
0010
0100
,
1000
0001
1100
0001
1000
0010
0110
0001
,
1000
0010
0101
0001
1000
0010
0110
1000
,
0001
1000
1010
0001
1000
0001
1010
0010
,
1000
0100
1001
1000
0010
0100
1001
1000
,
0010
0100
0011
1000
0100
1000
1001
0100
,
0001
0100
0110
0100
1000
0001
1010
0100
,
0001
0100
0011
0100
1000
0001
1010
0100
,
0001
1000
0011
0100
0001
1000
1010
0100
,
0001
1000
0110
0010
1000
0001
1100
0001
,
1000
0001
0101
0010
1000
0010
0101
0100
,
0010
1000
1001
0100
0010
1000
0101
0100
,
0010
0000
1000
0000
0101
0000
1000
0001
1000
0001
1000
0001
1000
0001
1000
0001
,
1000
0100
0010
0001
1010
0100
1000
0001
1000
0010
1000
0001
0110
0001
1000
0010
,
1000
0001
0100
0001
1010
0100
1000
0100
0010
0001
1000
0001
1100
0010
0100
0001
,
1000
0001
1000
0100
0110
0001
0010
0100
1000
0100
1000
0010
1100
0001
0100
0001
,
1000
0010
1000
0001
1010
0100
1000
0010
1000
0001
0010
0100
1010
0001
1000
0100
,
0010
0001
1000
0001
1010
0001
0100
0001
1000
0001
0010
0100
1001
0001
1000
0010
,
1000
0001
0010
0100
1001
0001
0100
0001
1000
0001
1000
0001
0110
0100
1000
0100
,
0010
0001
1000
0100
1010
0001
0100
0001
0100
0001
1000
0001
1010
0100
0010
0001
,
1000
0001
0100
0001
0110
0001
1000
0010
1000
0010
0100
0001
0110
0001
1000
0100
,
0010
0001
0010
0100
1001
0100
0010
1000
0010
1000
0100
0010
1001
0010
0100
1000
,
0001
1000
0010
1000
0101
0010
1000
0001
1000
0010
0100
0010
0110
0001
1000
0001
,
0010
0100
1000
0001
1100
0010
1000
0001
0010
0100
1000
0100
0110
0001
0010
0100
,
1000
0001
0100
0001
1100
0010
1000
0100
0010
0001
0010
0100
1001
0010
1000
0010
,
0100
0010
1000
0001
1010
0001
0100
0001
1000
0010
1000
0001
0110
0001
1000
0010
,
1000
0001
1000
0001
1010
0100
1000
0100
0010
0001
1000
0010
1100
0001
1000
0001
,
0010
0100
1000
0100
0011
1000
0010
1000
0001
0100
0001
0010
0101
1000
0100
0010
,
0001
1000
0010
1000
0101
0010
0100
1000
0100
1000
0100
1000
0101
1000
0001
0100
,
0001
1000
0001
0010
0101
1000
0100
0010
0001
1000
0001
0010
0101
1000
0100
1000
,
0010
1000
0001
0010
0101
1000
0001
1000
0001
0100
0001
1000
0110
1000
0001
0010
,
0100
1000
0100
0010
1001
1000
0001
1000
0001
0010
0100
1000
0110
1000
0010
1000
,
0001
0100
0001
0010
1001
1000
0100
0010
0001
0010
0100
1000
0101
0010
0001
1000
,
0001
1000
0001
0100
0001
1000
0010
0100
,
1000
0000
0001
0000
1000
0000
0010
0000
0100
0010
0100
0010
0100
0010
0100
0000
,
1000
0001
1000
0010
0100
0001
1000
0100
,
0010
0000
1000
0000
0001
0000
0100
0000
0010
0001
0010
0001
0010
0001
0010
0000
,
0100
0010
1000
0001
1000
0010
0100
0001
,
1000
0000
0010
0000
0100
0000
1000
0000
0001
1000
0001
1000
0001
1000
0001
0000
,
0010
1000
0001
0100
0010
1000
0001
0100
,
0001
0000
0100
0000
0010
0000
0001
0000
1000
0100
1000
0100
1000
0100
1000
0000
,
0001
0100
0001
1000
0010
0100
0001
1000
,
0010
0000
0100
0000
1000
0000
0001
0000
0100
0010
0100
0010
0100
0010
0100
0000
,
0100
0010
1000
0001
1000
0010
1000
1100
,
0101
0000
0000
0101
0000
0000
0101
0000
0000
0101
0000
0000
0101
0000
0000
0101
0000
0000
0010
1000
0001
0100
0010
1000
,
0002
0000
0000
0000
,
0003
1000
0010
0100
0001
0010
0100
1000
,
0110
0000
0011
0000
0110
0000
1100
0100
0110
0000
0011
0000
0110
0000
1100
0000
,
1001
0000
0101
0100
0110
0000
1010
0000
0101
0000
0110
0010
1010
0000
0101
0000
,
1001
0010
0100
0000
0000
0000
0000
0000
0001
1000
0001
0000
0000
0000
0000
0000
,
0000
1000
0100
0010
0100
1000
0001
0100
,
0110
0000
1010
0000
0110
0000
0101
0001
0011
0000
0110
0000
1100
0000
1010
0000
,
0110
0000
0101
0100
0110
0000
1010
0000
1100
0000
0011
0001
0101
0000
0110
0000
,
1001
0010
0100
0000
0001
0000
0001
0000
0100
0000
0010
0000
1000
0000
1000
0000
,
0110
0000
1000
0000
0001
0000
0001
0000
0100
1000
0001
0100
0010
1000
0001
0100
,
0010
1000
1000
0100
0010
0001
0001
1000
,
1000
0000
0001
0000
0100
0000
1000
0000
0001
0100
0010
1000
0001
0100
0010
1000
,
0001
0001
0100
0010
0100
0100
1010
1100
,
0010
0000
0001
0000
0001
0000
1000
0001
0100
0010
1000
0001
0100
0010
1000
0001
,
1000
1000
0100
0110
0001
0001
0100
0110
,
1010
0000
0110
0000
0001
0100
0010
1000
0001
0100
0010
1000
0001
0100
0010
0000
,
0010
1001
0000
0000
0010
1100
0000
0000
,
0010
0101
0000
0000
0110
0000
0000
0000
,
1100
0110
0110
1010
,
1010
0000
0000
0000
0000
0000
1010
0000
0000
0000
0000
0000
1100
0000
0000
0000
0000
0000
1100
0000
0000
0000
0000
0000
1000
0000
0000
0001
0000
0000
1000
0000
0000
0010
0000
0000
0001
0000
0100
0000
0010
0000
1000
0000
0001
0000
0100
0000
,
0020
0000
0030
0000
;
